#TITLE:My Spirit Will Go On;
#SUBTITLE:SDO China lv30 - [N]hok[Q] Simfile;
#ARTIST:Dragonforce;
#TITLETRANSLIT:;
#SUBTITLETRANSLIT:;
#ARTISTTRANSLIT:;
#CREDIT:[N]hok[Q];
#BANNER:bn.png;
#BACKGROUND:bg.png;
#LYRICSPATH:;
#CDTITLE:cd.png;
#MUSIC:My Spirit Will Go On.mp3;
#OFFSET:-0.021;
#SAMPLESTART:52.221;
#SAMPLELENGTH:14.100;
#SELECTABLE:YES;
#DISPLAYBPM:200.000;
#BPMS:0.000=200.000,72.000=133.531,72.500=398.230,73.000=133.531,73.500=398.230,74.000=133.531,74.500=398.230,75.000=133.531,75.500=398.230,76.000=200.000,167.000=133.531,167.500=398.230,168.000=200.000,169.000=133.531,169.125=398.230,169.250=200.000,170.000=180.248,170.500=395.931,171.000=221.300,172.000=200.000,216.000=195.918,217.000=127.220,217.333=406.229,217.750=200.000,219.000=133.531,219.125=398.230,219.250=200.000,220.000=200.000,295.000=200.000,295.292=133.531,295.792=398.406,296.000=398.104,296.292=200.000,303.000=200.000,303.292=133.531,303.792=398.406,304.000=398.104,304.292=200.000,311.000=200.000,311.292=133.531,311.792=398.406,312.000=398.104,312.292=200.000,319.000=200.000,319.292=133.531,319.792=398.406,320.000=398.104,320.292=200.000,361.000=200.000,361.292=133.531,361.792=398.406,362.000=398.104,362.292=200.000,363.000=200.000,363.292=133.531,363.792=398.406,364.000=398.104,364.292=200.000;
#STOPS:;
#BGCHANGES:;
// cache tags:
#FIRSTBEAT:4.000;
#LASTBEAT:387.750;
#SONGFILENAME:Songs/Super Dancer Online/My Spirit Will Go On2/My Spirit Will Go On.sm;
#HASMUSIC:1;
#HASBANNER:1;
#MUSICLENGTH:116.352;
// end cache tags

//---------------dance-single - ----------------
#NOTES:
     dance-single:
     :
     Hard:
     30:
     1.000,1.000,1.000,0.284,1.000,1150.000,288.000,33.000,0.000,28.000:
0000
0000
0000
0000
,
1000
0010
0100
0001
0010
1000
0001
0100
,
0010
0001
0100
0010
1000
0001
0100
0010
,
0001
0100
0010
1000
0001
0100
0010
0001
,
1000
0010
0100
0010
0100
0001
0100
0010
,
1000
0001
0100
0010
0100
0001
1000
0010
,
0100
0001
1000
0010
0100
0010
1000
0010
,
0001
0100
0010
1000
0001
0100
0010
1000
,
0100
0010
1000
0001
0010
0010
0100
0100
,
0011
1000
0011
0000
1100
0000
0011
0000
1001
0010
0100
0000
1001
0100
0010
0000
,
1100
0001
1010
0000
0101
0000
0110
0000
1001
0100
0010
0000
1010
0001
0100
0000
,
0011
1000
0110
0000
0011
0000
1100
0000
1010
0100
0001
0000
1010
0100
0010
0000
,
0101
0010
1001
0000
0110
0000
1010
0000
0101
0010
1000
0000
0110
0001
1000
0000
,
0111
1000
0011
0000
0101
0000
1101
0010
1001
0100
0011
0000
1110
0001
0100
0000
,
1011
0100
1010
0000
0101
0000
1110
0001
1010
0100
0011
0000
1101
0010
0100
0000
,
1011
0100
0011
0000
0110
0000
1101
0010
1001
0100
1010
0000
0101
0010
1100
0000
,
0111
1000
0101
0000
0110
0000
1110
0001
1010
0100
0011
0000
1101
0010
0101
0000
,
1001
0100
1010
0100
1001
0100
1010
0100
1001
0010
0101
0010
1001
0010
0101
0010
,
1101
0111
1110
1011
,
0100
0000
1001
0000
0010
0100
0011
0000
0100
0100
1010
0000
0001
0100
0011
0000
,
1000
0000
1100
0000
0010
1000
0110
0000
0001
1000
0101
0000
0010
0010
1010
0000
,
0100
0000
0101
0000
1000
0010
1100
0000
0010
1000
0011
0000
0100
0001
1010
0000
,
0100
0000
0011
0000
0001
1000
0011
0000
0100
0100
1010
0000
0001
1000
0110
0000
,
0001
0000
1100
0000
0010
1000
0101
0000
1000
0001
0110
0000
1000
0001
1100
0000
,
0010
0000
1001
0000
0100
0010
1001
0000
0010
0100
1001
0000
0010
0100
0011
0000
,
1000
0001
1100
0000
0010
0100
0011
0000
1000
0001
0110
0000
0001
0010
1001
0100
,
0010
0100
0011
1000
0100
0010
1001
0100
0010
0001
0100
0010
0001
0010
1000
0100
,
0010
0000
1100
0000
0010
1000
0011
0000
0100
0001
1010
0000
0100
0010
1001
0000
,
0010
0000
0101
0000
1000
0010
1100
0000
0001
1000
0011
0000
1000
0100
0010
1000
,
0001
0000
0110
0000
0001
1000
0011
0000
0100
0010
1100
0000
0010
1000
0101
0000
,
0010
0001
0100
0010
1000
0100
0010
0001
1000
0100
0010
1000
0001
0010
0100
0001
,
1010
0000
1000
0000
0110
0001
1100
0000
0010
0100
0010
0000
1001
0100
0010
0000
,
1100
0000
0011
0000
0001
0010
1100
0000
0001
1000
0100
0000
1010
0001
0100
0000
,
0011
0000
0100
0000
1010
0001
1100
0000
0010
1000
0001
0010
1100
0001
0100
0000
,
1020
0000
0000
0000
0001
0000
1000
0000
0100
0000
0001
0000
1000
0000
0100
0000
0001
0000
1000
0000
0100
0000
0001
0030
1000
0000
0100
0000
0010
0000
1000
0000
,
0010
0001
0110
0001
0010
0001
0010
0001
0010
0001
0010
0001
0010
0001
0010
0001
,
0010
0001
0110
0001
0010
0001
1010
0001
0010
0001
0110
0001
0010
0001
1010
0001
,
0100
1000
0110
1000
0100
1000
0101
1000
0100
1000
0110
1000
0100
1000
0101
1000
,
0100
1000
0110
1000
0100
1000
0101
1000
0100
1000
0110
1000
0100
1000
0101
1000
,
0110
0001
1000
0100
0010
1000
0101
0010
1000
0100
0010
1000
0011
1000
0100
0010
,
0101
0010
1000
0100
1010
0000
0101
0010
1000
0100
0010
0001
1100
0010
0001
0010
,
0101
0000
0000
0000
0000
0000
0010
0000
0000
0000
0000
0100
0000
0000
0000
0000
,
0102
0000
0000
0000
0000
0000
0000
0000
0000
0003
0120
0000
0000
0000
0000
0000
0000
0000
0000
0000
0000
0000
0000
0030
2101
0000
0000
0000
0000
0000
0000
0000
,
3000
0010
0001
1100
0000
0010
0100
0011
0000
1000
0010
1000
0000
0001
0010
1100
,
0000
0001
0100
0011
0000
1000
0010
1100
0000
0001
0100
0011
0000
1000
0010
1100
,
0000
0010
0010
0101
0000
0100
0100
1010
0000
0001
0100
0011
0000
1000
0100
0011
,
0100
1001
0010
0100
0010
1000
0001
1100
0001
0010
0100
0001
0010
1000
0100
0010
,
0001
1000
0010
1100
0000
0001
0100
0011
0000
0100
0100
0011
0000
0001
0001
1100
,
0000
0010
1000
0011
0000
0100
0001
1100
0000
0001
1000
0011
0000
0100
0010
1001
,
0000
0100
0010
1100
0000
0010
1000
0110
0000
0001
1000
0101
0000
0010
1000
0011
,
0000
0100
0010
1100
0000
0001
1000
0011
0000
0100
0010
1001
0000
0010
1000
0100
,
0010
1100
0001
0100
0010
1000
0001
0110
1000
0010
0100
0001
0010
1001
0100
0010
,
0001
1010
0100
0001
0010
1000
0001
1100
0010
1000
0001
0010
0100
0011
1000
0100
,
0010
1000
0001
1000
0001
1000
0001
1000
0001
1000
0001
1000
0001
1000
0001
1000
,
0001
0110
0000
0000
0000
0000
0000
0010
0000
0000
0000
0000
0000
0100
0000
0000
,
0000
1010
0000
1000
0000
0011
0000
0100
0000
1001
0000
0001
0000
0110
0000
0010
,
0000
0101
0000
0010
0000
0101
0000
0010
0000
1100
0000
0001
0001
0110
0000
1010
,
0000
0100
0000
0011
0000
1010
0000
1000
0000
0101
0000
0010
0000
1001
0000
0100
,
0000
0010
0000
1100
0000
0001
0000
0110
0000
1001
0000
0100
0100
1010
0000
0101
,
0000
1000
0000
0011
0000
1001
0000
0100
0000
1010
0000
0100
0000
1010
0000
0100
,
0000
0011
0000
1000
0000
0101
0000
0010
0000
1001
0000
1000
1000
0011
0000
0110
,
0000
1000
0000
0011
0100
1001
0000
0110
0001
1010
0000
0101
0010
1001
0000
0110
,
1000
0010
0000
1001
0010
1100
0000
1010
0100
0011
0000
1100
0001
1010
0000
2010
,
0000
0000
0000
0000
,
0000
3000
0012
0000
0100
0000
0010
0000
0000
0003
1200
0000
0010
0000
1000
0000
0000
0300
0021
0000
1000
0000
0001
0000
0000
0030
1001
0000
0100
0000
0011
0000
,
0000
1100
0001
1010
0000
0101
0010
1100
0000
0010
0001
2100
0000
0010
0001
0100
,
0010
3000
0100
0000
0001
0000
0010
0000
1000
0000
0001
0000
1000
0000
0100
0000
0010
0000
1000
0000
0001
0000
0010
0000
0001
0000
0100
0000
0010
0000
1000
0000
,
0100
0000
0012
0000
1000
0000
0100
0000
0010
0003
1100
0000
0010
0000
1000
0000
0000
0000
0201
0000
0010
0000
1000
0000
0010
0300
1001
0000
0001
0000
1000
0000
,
0000
0000
0000
0010
0000
1000
0000
0100
0000
0010
0000
1000
0000
0100
0000
0010
0000
1000
0000
0100
0000
0010
0000
1000
0000
0100
0000
1000
0000
0001
0000
0010
0000
1000
0000
0001
0000
0010
0000
0100
0000
0001
0000
0010
0000
0100
0000
0001
,
0000
0010
0000
1000
0000
0100
0000
0010
0000
1000
0000
0100
0000
0010
0000
0001
0000
0010
0000
0100
0000
0001
0000
0010
0000
0100
0000
0001
0000
1000
0000
0100
0000
0001
0000
1000
0000
0100
0000
0010
0000
0001
0000
0100
0000
0010
0000
0001
,
0000
0100
0000
1010
0000
0000
0000
0000
0000
0010
0000
0000
0000
0000
0000
1001
0000
0000
0100
0000
0000
0010
0000
0000
0000
0000
0000
1001
0000
0000
0010
0000
0000
0100
0000
0000
1000
0000
0000
0101
0000
0000
0000
0000
0000
0010
0000
0000
,
0010
1000
0100
0001
1000
0001
0010
1000
0010
0201
0010
1000
0010
1000
0001
0010
,
1000
0300
0001
0000
0010
0000
1000
0000
0100
0000
0010
0000
0001
0000
1000
0000
0100
0000
0001
0000
0010
0000
0100
0000
0001
0000
1000
0000
0100
0000
0010
0000
,
0001
1000
0100
0010
1000
0100
0010
0001
0010
0100
1000
0100
0001
1020
0000
0000
,
0030
0100
0001
1000
0100
0010
0001
1000
0100
0010
1000
0100
0010
0001
0010
1000
,
0100
0001
0010
0100
0010
1000
0100
0010
0100
0001
0010
0100
0001
2010
0000
0000
,
3000
0100
0010
0001
0010
0100
1000
0100
0010
0001
0010
0100
1000
0100
0010
0001
,
0010
0100
1000
0100
0010
0001
0010
0100
1000
0100
0010
0001
0010
0102
0000
0000
,
0003
1000
0100
0010
1000
0001
0010
0100
0001
0010
0100
1000
0100
0010
0001
0010
,
0100
0001
0010
1000
0100
0001
0010
1000
0100
0010
0001
0100
0010
0201
0000
0000
,
0300
0000
0010
0000
0000
0000
0010
0000
0000
0000
0112
0000
0100
0000
0100
0000
0000
0003
2110
0000
0000
0000
0010
0000
0000
3000
0120
0000
0100
0000
0100
0000
,
0000
0030
0201
0000
0000
0000
0001
0000
0000
0000
0001
0000
0001
0300
1002
0000
0000
0000
1000
0000
0000
0000
1000
0000
0000
0003
2010
0000
0010
0000
0010
0000
,
0000
3000
0100
0000
0000
0000
0001
0000
0010
0000
1000
0000
0000
0000
0010
0000
0000
0000
0001
0000
0000
0000
1000
0000
0100
0000
0010
0000
0000
0000
1000
0000
,
0000
0001
0000
0100
0010
1000
0000
0001
0000
0100
0000
0010
0010
1000
0000
0100
,
0000
0000
2011
0000
0000
0000
0010
0000
0000
0000
0010
0000
0000
3000
0121
0000
0000
0000
0100
0000
0000
0000
0100
0000
0000
0030
1201
0000
0000
0000
1000
0000
,
0000
0300
1012
0000
0000
0000
0010
0000
0000
0000
0010
0000
0000
0003
2110
0000
0000
0000
0100
0000
0000
0000
0100
0000
0000
3000
0121
0000
0000
0000
0001
0000
,
0000
0000
0000
0030
0000
0000
1000
0000
0000
0000
0001
0000
0000
0000
1000
0000
0000
0000
0001
0000
0000
0000
1000
0000
0000
0000
0001
0000
0000
0000
1000
0000
0000
0000
0001
0000
0000
0000
1000
0000
0000
0000
0010
0000
0000
0000
0100
0000
0000
0000
0010
0000
0000
0000
0100
0000
0000
0000
0010
0000
0000
0000
0100
0000
0000
0000
0010
0000
0000
0000
0100
0000
0000
0000
0010
0000
0000
0000
1000
0000
0000
0000
0001
0000
0000
0000
1000
0000
0000
0000
0001
0000
0000
0000
1000
0000
,
0000
0001
0000
0100
0000
0010
0000
0100
0000
0010
0000
0100
0000
0010
0000
0100
0000
0010
0000
0100
0000
0010
0000
0100
0000
0010
0000
1000
0000
0100
0000
0001
0000
1000
0000
0100
0000
0001
0000
0010
0000
1000
0000
0100
0000
0001
0000
0010
,
0000
0100
0000
1001
0000
0000
0001
0000
0000
0001
0000
0000
0000
0000
0000
0101
0000
0000
0001
0000
0000
0001
0000
0000
0000
0000
0000
0101
0000
0000
0001
0000
0000
0001
0000
0000
0000
0000
0000
1001
0000
0000
0001
0000
0000
0001
0000
0000
,
0000
0110
0100
0100
0000
0111
0100
0100
0000
0110
0100
0100
0000
0111
0100
0100
,
0000
1010
0000
1000
0000
0211
0000
0000
0300
1010
0000
0010
0000
1102
0000
0000
,
0003
1000
0100
0010
1000
0001
0010
0100
0010
1000
0001
0100
0010
1000
0100
0010
,
0001
0110
1000
0100
1000
0101
1000
0100
1000
0110
1000
0100
1000
0101
1000
0100
,
1000
0011
0000
0011
0000
0110
0000
1001
0000
0110
0000
0100
0000
1001
0010
0100
,
0010
1100
0000
0001
0001
0110
1000
0001
0000
0110
0001
1010
0100
0011
0000
0101
,
0000
1010
0100
0001
0010
1001
0100
0010
0100
1001
0010
0100
0010
2100
0001
0010
,
0100
3000
0022
0000
0000
0000
0000
0000
0000
0000
0000
0000
0000
0000
0000
0000
0000
0000
0000
0000
0000
0000
0000
0000
0000
0000
0033
0000
0000
0000
0000
0000
,
0000
0000
0000
0000
,
0000
0000
0000
0000
,
0000
0000
0000
0000
,
0000
0000
0000
0000
,
0000
0000
0000
0000
,
0000
0000
0000
0000
,
0000
0000
0000
0000
,
0000
0000
0000
0000
;

//---------------dance-solo - ----------------
#NOTES:
     dance-solo:
     :
     Hard:
     30:
     1.000,1.000,1.000,0.284,1.000,1150.000,288.000,33.000,0.000,28.000:
000000
000000
000000
000000
,
010000
000100
001000
000010
000001
010000
000010
001000
,
000100
000010
100000
000100
010000
000010
001000
000100
,
000010
001000
000001
010000
000010
001000
100000
000010
,
010000
000100
001000
000100
001000
000010
001000
000100
,
010000
000010
001000
000100
001000
000010
100000
000100
,
010000
000001
100000
000100
001000
000001
010000
000100
,
000010
001000
000100
010000
000001
001000
000100
100000
,
001000
000100
010000
000010
000100
000100
001000
001000
,
000101
010000
000110
000000
011000
000000
000110
000000
010010
000100
001000
000000
110000
001000
000100
000000
,
011000
000010
010100
000000
001010
000000
001001
000000
010010
001000
000100
000000
100100
010000
001000
000000
,
000110
010000
001100
000000
000110
000000
011000
000000
010100
001000
000010
000000
010100
001000
000100
000000
,
001010
000100
010010
000000
001001
000000
100001
000000
001010
000100
010000
000000
100100
000010
010000
000000
,
001011
010000
000110
000000
001010
000000
101010
000100
010010
001000
000101
000000
011100
000010
001000
000000
,
010110
001000
010100
000000
001010
000000
110001
000010
001100
100000
000101
000000
101010
000100
001000
000000
,
010110
001000
000110
000000
100100
000000
101010
000001
001010
100000
010100
000000
001010
000100
011000
000000
,
010110
001000
100010
000000
100100
000000
101001
000100
010010
001000
000101
000000
011001
000100
001010
000000
,
010010
001000
010100
000001
010010
001000
100100
001000
010010
000100
001001
000010
010100
000001
001010
000100
,
011010
001011
110100
010101
,
001000
000000
010010
000000
000100
001000
000101
000000
010000
010000
101000
000000
000010
001000
000101
000000
,
010000
000000
101000
000000
000100
010000
001001
000000
000010
010000
001010
000000
000100
000100
010100
000000
,
001000
000000
001010
000000
010000
000100
101000
000000
000100
010000
000101
000000
001000
000010
010100
000000
,
001000
000000
000101
000000
000001
010000
000110
000000
001000
001000
010100
000000
100000
010000
001100
000000
,
000010
000000
101000
000000
000100
010000
001010
000000
010000
000010
001001
000000
010000
000010
101000
000000
,
000100
000000
010001
000000
001000
000100
100010
000000
000100
001000
010001
000000
000100
001000
000101
000000
,
010000
000010
101000
000000
000100
001000
000101
000000
010000
000010
100100
000000
000010
000100
010010
001000
,
000100
001000
000101
010000
001000
000100
010010
000100
000001
100000
010000
001000
000100
000010
010000
001000
,
000100
000000
101000
000000
000100
010000
000101
000000
001000
000010
000101
000000
001000
000100
110000
000000
,
000100
000000
001010
000000
010000
000100
101000
000000
000010
010000
000101
000000
010000
001000
000100
010000
,
000010
000000
001001
000000
000010
010000
000101
000000
001000
000100
101000
000000
000010
010000
001010
000000
,
000100
000010
001000
000100
010000
001000
000100
000010
100000
010000
001000
000100
000010
000100
001000
000001
,
010100
000000
001000
000000
010100
000001
101000
000000
000100
001000
000100
000000
010010
001000
000100
000000
,
101000
000000
000101
000000
000010
000100
010001
000000
000010
010000
001000
000000
100100
010000
001000
000000
,
000110
000000
001000
000000
010100
000010
101000
000000
000100
010000
000010
000100
010001
000010
001000
000000
,
100200
000000
000010
010000
001000
100000
010000
001000
000010
010000
001000
000010
010300
001000
000100
010000
,
000100
000010
100100
000010
000100
000010
000100
000010
000100
000010
000100
000010
000100
000010
000100
000010
,
000100
000010
001100
000010
000100
000010
010100
000010
000100
000010
100100
000010
000100
000010
010100
000010
,
001000
010000
001001
010000
001000
010000
001010
010000
001000
010000
001100
010000
001000
010000
001010
010000
,
001000
010000
001001
010000
001000
010000
001010
010000
001000
010000
001100
010000
001000
010000
001010
010000
,
001100
000010
010000
001000
000100
010000
000011
000100
010000
001000
000100
010000
100100
010000
001000
000100
,
001010
000100
010000
001000
010001
000000
001010
000100
010000
001000
000100
000010
101000
000100
000010
000100
,
001001
000000
000000
000000
000000
000000
000100
000000
000000
000000
000000
100000
000000
000000
000000
000000
,
010020
000000
000000
000000
000000
000000
000000
000000
000000
000030
010200
000000
000000
000000
000000
000000
000000
000000
000000
000000
000000
000000
000000
000300
021001
000000
000000
000000
000000
000000
000000
000000
,
000000
030100
000010
010100
000000
000100
001000
000101
000000
010000
000100
010000
000000
000010
000100
101000
,
000000
000010
001000
000101
000000
010000
000100
101000
000000
000010
001000
000110
000000
010000
000100
010001
,
000000
000100
000100
001010
000000
001000
001000
100100
000000
000010
001000
000101
000000
010000
001000
100010
,
001000
010010
000100
001000
000100
010000
000001
101000
000010
000100
001000
000010
000100
010000
001000
000100
,
000010
010000
000100
101000
000000
000010
001000
000101
000000
001000
001000
000101
000000
000010
000010
011000
,
000000
000100
010000
000101
000000
001000
000010
101000
000000
000010
010000
000101
000000
001000
000100
010010
,
000000
001000
000100
001010
000000
000100
010000
101000
000000
000001
010000
001010
000000
000100
010000
000101
,
000000
001000
000100
101000
000000
000010
010000
000101
000000
001000
000100
100001
000000
000100
010000
001000
,
000100
011000
000010
001000
000100
100000
000010
001100
100000
000100
001000
000001
000100
010001
001000
000100
,
000010
010100
001000
000010
000100
010000
000010
101000
000100
010000
000010
000100
001000
000101
010000
001000
,
000100
010000
000010
010000
000010
010000
000010
010000
000010
010000
000010
010000
000010
010000
000010
010000
,
000010
001100
000000
000000
000000
000000
000000
000100
000000
000000
000000
000000
000000
001000
000000
000000
,
000000
010001
000000
010000
000000
100100
000000
001000
000000
010010
000000
000010
000000
001001
000000
000100
,
000000
001010
000000
000100
000000
001010
000000
000100
000000
010001
000000
000010
000010
101000
000000
010100
,
000000
001000
000000
000101
000000
010100
000000
010000
000000
001010
000000
000100
000000
010010
000000
001000
,
000000
000100
000000
101000
000000
000010
000000
001001
000000
010010
000000
001000
001000
010100
000000
100010
,
000000
010000
000000
000101
000000
010010
000000
001000
000000
100100
000000
001000
000000
010001
000000
001000
,
000000
000110
000000
010000
000000
001010
000000
000100
000000
100010
000000
010000
010000
000101
000000
001010
,
000000
010000
000000
100100
001000
010010
000000
001100
000010
100100
000000
010001
000010
100001
000000
001010
,
010000
000100
000000
010010
000100
101000
000000
010100
001000
000101
000000
010001
000010
010100
000000
020100
,
000000
000000
000000
000000
,
000000
000000
000000
030000
000000
000000
000120
000000
000000
000000
000000
000000
001000
000000
000000
000000
000000
000000
000100
000000
000000
000000
000000
000000
000000
000000
000030
000000
000000
000000
012000
000000
000000
000000
000000
000000
000100
000000
000000
000000
000000
000000
010000
000000
000000
000000
000000
000000
000000
000000
000000
003000
000000
000000
000210
000000
000000
000000
000000
000000
010000
000000
000000
000000
000000
000000
000010
000000
000000
000000
000000
000000
000000
000000
000000
000300
000000
000000
010010
000000
000000
000000
000000
000000
100000
000000
000000
000000
000000
000000
000101
000000
000000
000000
000000
000000
,
000000
101000
000010
010100
000000
001010
000100
010001
000000
000100
000001
020100
000000
000001
000010
001000
,
000100
030000
001000
000000
000010
000000
000100
000000
010000
000000
000001
000000
010000
000000
001000
000000
000100
000000
100000
000000
000010
000000
000100
000000
000001
000000
001000
000000
000100
000000
010000
000000
,
001000
000000
000120
000000
010000
000000
001000
000000
000100
000030
101000
000000
000100
000000
010000
000000
000000
000000
002010
000000
000100
000000
100000
000000
000100
003000
100001
000000
000001
000000
010000
000000
,
000000
000000
000000
000100
000000
010000
000000
001000
000000
000100
000000
010000
000000
001000
000000
000100
000000
010000
000000
001000
000000
000100
000000
010000
000000
001000
000000
010000
000000
000010
000000
000100
000000
010000
000000
000010
000000
000100
000000
001000
000000
000010
000000
000100
000000
001000
000000
000010
,
000000
000100
000000
010000
000000
001000
000000
000100
000000
010000
000000
001000
000000
000100
000000
000010
000000
000100
000000
001000
000000
000010
000000
000100
000000
001000
000000
000010
000000
010000
000000
001000
000000
000010
000000
010000
000000
001000
000000
000100
000000
000010
000000
001000
000000
000100
000000
000010
,
000000
001000
000000
010100
000000
000000
000000
000000
000000
000001
000000
000000
000000
000000
000000
110000
000000
000000
001000
000000
000000
000100
000000
000000
000000
000000
000000
010010
000000
000000
000100
000000
000000
001000
000000
000000
010000
000000
000000
001001
000000
000000
000000
000000
000000
000100
000000
000000
,
000100
010000
001000
000001
010000
000010
000100
100000
000100
002010
000100
010000
000100
100000
000010
000100
,
010000
003000
000001
000000
000010
000000
010000
000000
001000
000000
000100
000000
000010
000000
010000
000000
001000
000000
000010
000000
000100
000000
001000
000000
000001
000000
010000
000000
001000
000000
000100
000000
,
000010
100000
010000
001000
000100
001000
000100
000010
000100
001000
010000
001000
000010
010200
000000
000000
,
000300
001000
000010
100000
010000
001000
000100
010000
001000
000100
010000
001000
000100
000010
000100
000001
,
001000
000010
000100
001000
000001
010000
001000
000100
100000
000010
000100
001000
000001
020100
000000
000000
,
030000
001000
000100
000010
000001
001000
010000
001000
000100
000010
000100
001000
010000
001000
000100
000010
,
100000
000100
010000
001000
000100
000010
000100
001000
010000
001000
000100
000010
000100
001020
000000
000000
,
000030
010000
001000
000100
100000
000010
000100
001000
000010
000100
001000
010000
001000
000100
000010
000100
,
001000
000010
000001
010000
001000
000010
000100
010000
001000
000100
000010
001000
000100
102000
000000
000000
,
003000
000000
000100
000000
000000
000000
000100
000000
000000
000000
001120
000000
000001
000000
001000
000000
000000
000030
021100
000000
000000
000000
100000
000000
000000
030000
001200
000000
000001
000000
001000
000000
,
000000
000300
002010
000000
000000
000000
000010
000000
000000
000000
000010
000000
000010
003000
010020
000000
000000
000000
100000
000000
000000
000000
010000
000000
000000
000030
020100
000000
000100
000000
000100
000000
,
000000
030000
001000
000000
000000
000000
000010
000000
000100
000000
010000
000000
000000
000000
000100
000000
000000
000000
000010
000000
000000
000000
100000
000000
010000
000000
000100
000000
000000
000000
010000
000000
,
000000
000010
000000
001000
000100
010000
000000
000010
000000
100000
000000
000001
000001
010000
000000
001000
,
000000
000000
020110
000000
000000
000000
000001
000000
000000
000000
000100
000000
000000
030000
001210
000000
000000
000000
100000
000000
000000
000000
001000
000000
000000
000300
012010
000000
000000
000000
000001
000000
,
000000
003000
010120
000000
000000
000000
100000
000000
000000
000000
001000
000000
000000
000030
021100
000000
000000
000000
001000
000000
000000
000000
001000
000000
000000
030000
001201
000000
000000
000000
000010
000000
,
000000
000000
000000
000300
000000
000000
010000
000000
000000
000000
000010
000000
000000
000000
010000
000000
000000
000000
000010
000000
000000
000000
010000
000000
000000
000000
000010
000000
000000
000000
010000
000000
000000
000000
000010
000000
000000
000000
001000
000000
000000
000000
000100
000000
000000
000000
001000
000000
000000
000000
000100
000000
000000
000000
001000
000000
000000
000000
000100
000000
000000
000000
001000
000000
000000
000000
000100
000000
000000
000000
001000
000000
000000
000000
000100
000000
000000
000000
010000
000000
000000
000000
000010
000000
000000
000000
010000
000000
000000
000000
000010
000000
000000
000000
010000
000000
,
000000
000010
000000
001000
000000
000100
000000
001000
000000
000100
000000
001000
000000
000100
000000
001000
000000
000100
000000
001000
000000
000100
000000
001000
000000
000100
000000
010000
000000
001000
000000
000010
000000
010000
000000
001000
000000
000010
000000
000100
000000
010000
000000
001000
000000
000010
000000
000100
,
000000
001000
000000
010001
000000
000000
000001
000000
000000
000001
000000
000000
000000
000000
000000
001001
000000
000000
000001
000000
000000
000001
000000
000000
000000
000000
000000
001001
000000
000000
000001
000000
000000
000001
000000
000000
000000
000000
000000
010001
000000
000000
000001
000000
000000
000001
000000
000000
,
000000
110000
100000
100000
000000
101010
100000
100000
000000
100100
100000
100000
000000
101010
100000
100000
,
000000
000000
010100
000000
000000
000000
010000
000000
000000
000000
002011
000000
000000
000000
000000
000000
000000
003000
010010
000000
000000
000000
000100
000000
000000
000000
011020
000000
000000
000000
000000
000000
,
000030
010000
001000
000100
010000
000010
000100
001000
000100
100000
000001
001000
000100
010000
001000
000100
,
000010
001100
010000
001000
010000
001010
010000
001000
010000
001001
010000
001000
010000
001010
010000
001000
,
010000
000110
000000
000101
000000
001100
000000
010010
000000
101000
000000
001000
000000
010010
000100
001000
,
000100
010001
000000
000010
000010
001100
010000
000010
000000
100100
000010
010100
001000
000101
000000
001010
,
000000
010100
001000
000010
000100
010001
001000
000100
001000
100010
000100
001000
000100
021000
000010
000100
,
001000
030000
000202
000000
000000
000000
000000
000000
000000
000000
000000
000000
000000
000000
000000
000000
000000
000000
000000
000000
000000
000000
000000
000000
000000
000000
000000
000000
000000
000000
000303
000000
,
000000
000000
000000
000000
,
000000
000000
000000
000000
,
000000
000000
000000
000000
,
000000
000000
000000
000000
,
000000
000000
000000
000000
,
000000
000000
000000
000000
,
000000
000000
000000
000000
,
000000
000000
000000
000000
;
